请选择 进入手机版 | 继续访问电脑版
 找回密码
 立即注册
查看: 971|回复: 0

[1993][新仙鹤神针][武侠电影][国粤语简繁软中字][1080P]

[复制链接]

198

主题

199

帖子

199

积分

略有小成

Rank: 12Rank: 12

UID
307
精华
0
金币
65
贡献
0
银币
856
在线时间
76 小时
注册时间
2014-12-16
发表于 2021-12-24 18:20:53 | 显示全部楼层 |阅读模式
1.jpg

◎译  名 新仙鹤神针 / 孤城英雄传 / The Magic Crane
◎片  名 新仙鶴神針
◎年  代 1993
◎产  地 中国香港
◎类  别 动作 / 奇幻 / 武侠 / 古装
◎语  言 汉语普通话/粤语
◎上映日期 1993-08-19
◎IMDb评星  ★★★★★★✦☆☆☆
◎IMDb评分  6.3/10 from 340 users

◎豆瓣评星 ★★★✦☆
◎豆瓣评分 7.1/10 from 28,080 users

◎片  长 93分钟 / 89分钟
◎导  演 陈木胜 / Benny Chan
◎演  员 梁朝伟 / Tony Leung Chiu Wai | 饰 马君武
      梅艳芳 / Anita Mui
      关之琳 / Rosamund Kwan
      刘松仁 / Damian Lau
      吴启华 / Lawrence Ng
      徐少强 / Norman Chu
      张铁林 / Tielin Zhang
      刘锦玲 / Jay Lau
      刘洵 / Shun Lau
      姚文基 / Man-kei Yiu
      陈慧仪 / Wai Yee Chan
◎编  剧 徐克 / Hark Tsui
      卧龙生 / Lung-Sheng Wo
      徐达初 / Jobic Tsui
◎制  片  人 徐克 / Hark Tsui
      何丽嫦 / Lorraine Ho
◎音  乐 吴大江 / Ta Chiang Wu
      王邦 / Jonathon Wong
◎摄  影 刘满棠 / Moon-Tong Lau
◎剪  辑 麦子善 / Marco Mak
◎服  装 赵国信 / Kwok-Chun Chiu
      陳秀明 / Sau-Ming Chan
      邓汝好 / Pat Tang Yu-Ho
◎副  导  演 许安 / Koan Hui
      麦启光 / Albert Kai-kwong Mak
◎动作特技 刘志豪 / Chi-Ho Lau

◎标  签 武侠 | 香港 | 梁朝伟 | 徐克 | 梅艳芳 | 香港电影 | 动作 | 关之琳

◎简  介 

  六扇门主事曹雄(张铁林饰)召开武林大会欲统领江湖。各大门派赶赴大会,点苍派师徒一阳子(刘松仁饰)和徒弟马君武(梁朝伟饰)亦于其中。师徒两人遇上天龙帮突袭,幸得白云飞(梅艳芳饰)相救。其后白更答应往桃花潭捕捉千年灵龟,以解众掌门之毒。几经辛苦,3人终捕得灵龟,岂料又被蓝小蝶(关之琳饰)利用琴音夺走,扬言要白亲自去取回。此时,由于曹雄误传归元秘籍为白云飞所有,于是追杀白云飞的武林行动也展开了。而曹雄学得绝世武功,无人能敌......


◎截    图


  • Video
  • ID                             : 1
  • Format                         : HEVC
  • Format/Info                    : High Efficiency Video Coding
  • Format profile                 : Main 10@L4@Main
  • Codec ID                       : V_MPEGH/ISO/HEVC
  • Duration                       : 1 h 32 min
  • Bit rate                       : 4 902 kb/s
  • Width                          : 1 920 pixels
  • Height                         : 1 080 pixels
  • Display aspect ratio           : 16:9
  • Frame rate mode                : Constant
  • Frame rate                     : 24.000 FPS
  • Color space                    : YUV
  • Chroma subsampling             : 4:2:0
  • Bit depth                      : 10 bits
  • Bits/(Pixel*Frame)             : 0.099
  • Stream size                    : 3.17 GiB (80%)
  • Title                          : @至尊宝
  • Writing library                : x265 3.4+12-geff904199:[Windows][GCC 5.4.0][64 bit] 10bit
  • Encoding settings              : cpuid=1111039 / frame-threads=3 / numa-pools=8 / wpp / no-pmode / no-pme / no-psnr / no-ssim / log-level=2 / input-csp=1 / input-res=1920x1080 / interlace=0 / total-frames=0 / level-idc=0 / high-tier=1 / uhd-bd=0 / ref=1 / no-allow-non-conformance / no-repeat-headers / annexb / no-aud / no-hrd / info / hash=0 / no-temporal-layers / open-gop / min-keyint=24 / keyint=240 / gop-lookahead=0 / bframes=3 / b-adapt=0 / b-pyramid / bframe-bias=0 / rc-lookahead=5 / lookahead-slices=6 / scenecut=0 / hist-scenecut=0 / radl=0 / no-splice / no-intra-refresh / ctu=32 / min-cu-size=16 / no-rect / no-amp / max-tu-size=32 / tu-inter-depth=1 / tu-intra-depth=1 / limit-tu=0 / rdoq-level=0 / dynamic-rd=0.00 / no-ssim-rd / no-signhide / no-tskip / nr-intra=0 / nr-inter=0 / no-constrained-intra / strong-intra-smoothing / max-merge=2 / limit-refs=0 / no-limit-modes / me=0 / subme=0 / merange=57 / temporal-mvp / no-frame-dup / no-hme / no-weightp / no-weightb / no-analyze-src-pics / deblock=0:0 / no-sao / no-sao-non-deblock / rd=2 / selective-sao=0 / early-skip / rskip / fast-intra / no-tskip-fast / no-cu-lossless / no-b-intra / no-splitrd-skip / rdpenalty=0 / psy-rd=0.00 / psy-rdoq=0.00 / no-rd-refine / no-lossless / cbqpoffs=0 / crqpoffs=0 / rc=crf / crf=17.0 / qcomp=0.60 / qpstep=4 / stats-write=0 / stats-read=0 / ipratio=1.40 / pbratio=1.30 / aq-mode=2 / aq-strength=0.00 / cutree / zone-count=0 / no-strict-cbr / qg-size=32 / no-rc-grain / qpmax=69 / qpmin=0 / no-const-vbv / sar=1 / overscan=0 / videoformat=5 / range=0 / colorprim=2 / transfer=2 / colormatrix=2 / chromaloc=0 / display-window=0 / cll=0,0 / min-luma=0 / max-luma=1023 / log2-max-poc-lsb=8 / vui-timing-info / vui-hrd-info / slices=1 / no-opt-qp-pps / no-opt-ref-list-length-pps / no-multi-pass-opt-rps / scenecut-bias=0.05 / hist-threshold=0.03 / no-opt-cu-delta-qp / no-aq-motion / no-hdr10 / no-hdr10-opt / no-dhdr10-opt / no-idr-recovery-sei / analysis-reuse-level=0 / analysis-save-reuse-level=0 / analysis-load-reuse-level=0 / scale-factor=0 / refine-intra=0 / refine-inter=0 / refine-mv=1 / refine-ctu-distortion=0 / no-limit-sao / ctu-info=0 / no-lowpass-dct / refine-analysis-type=0 / copy-pic=1 / max-ausize-factor=1.0 / no-dynamic-refine / no-single-sei / no-hevc-aq / no-svt / no-field / qp-adaptation-range=1.00 / no-scenecut-aware-qpconformance-window-offsets / right=0 / bottom=0 / decoder-max-rate=0
  • Language                       : Chinese
  • Default                        : Yes
  • Forced                         : No
  • Color range                    : Limited
  • Audio #1
  • ID                             : 2
  • Format                         : AC-3
  • Format/Info                    : Audio Coding 3
  • Commercial name                : Dolby Digital
  • Codec ID                       : A_AC3
  • Duration                       : 1 h 32 min
  • Bit rate mode                  : Constant
  • Bit rate                       : 192 kb/s
  • Channel(s)                     : 2 channels
  • Channel layout                 : L R
  • Sampling rate                  : 48.0 kHz
  • Frame rate                     : 31.250 FPS (1536 SPF)
  • Compression mode               : Lossy
  • Stream size                    : 127 MiB (3%)
  • Title                          : 国语
  • Language                       : Chinese
  • Service kind                   : Complete Main
  • Default                        : Yes
  • Forced                         : No
  • Audio #2
  • ID                             : 3
  • ID in the original source medi : 4352 (0x1100)
  • Format                         : AC-3
  • Format/Info                    : Audio Coding 3
  • Commercial name                : Dolby Digital
  • Codec ID                       : A_AC3
  • Duration                       : 1 h 32 min
  • Bit rate mode                  : Constant
  • Bit rate                       : 640 kb/s
  • Channel(s)                     : 6 channels
  • Channel layout                 : L R C LFE Ls Rs
  • Sampling rate                  : 48.0 kHz
  • Frame rate                     : 31.250 FPS (1536 SPF)
  • Compression mode               : Lossy
  • Stream size                    : 424 MiB (10%)
  • Title                          : 粤语5.1
  • Language                       : Chinese
  • Service kind                   : Complete Main
  • Default                        : No
  • Forced                         : No
  • Original source medium         : Blu-ray
  • Audio #3
  • ID                             : 4
  • ID in the original source medi : 4353 (0x1101)
  • Format                         : AC-3
  • Format/Info                    : Audio Coding 3
  • Commercial name                : Dolby Digital
  • Codec ID                       : A_AC3
  • Duration                       : 1 h 32 min
  • Bit rate mode                  : Constant
  • Bit rate                       : 384 kb/s
  • Channel(s)                     : 2 channels
  • Channel layout                 : L R
  • Sampling rate                  : 48.0 kHz
  • Frame rate                     : 31.250 FPS (1536 SPF)
  • Compression mode               : Lossy
  • Stream size                    : 254 MiB (6%)
  • Title                          : 粤语2.0
  • Language                       : Chinese
  • Service kind                   : Complete Main
  • Default                        : No
  • Forced                         : No
  • Original source medium         : Blu-ray
  • Text #1
  • ID                             : 5
  • Format                         : ASS
  • Codec ID                       : S_TEXT/ASS
  • Codec ID/Info                  : Advanced Sub Station Alpha
  • Duration                       : 1 h 29 min
  • Bit rate                       : 123 b/s
  • Count of elements              : 1147
  • Compression mode               : Lossless
  • Stream size                    : 81.5 KiB (0%)
  • Title                          : 简体中文ASS
  • Language                       : Chinese
  • Default                        : Yes
  • Forced                         : No
  • Text #2
  • ID                             : 6
  • Format                         : ASS
  • Codec ID                       : S_TEXT/ASS
  • Codec ID/Info                  : Advanced Sub Station Alpha
  • Duration                       : 1 h 29 min
  • Bit rate                       : 123 b/s
  • Count of elements              : 1147
  • Compression mode               : Lossless
  • Stream size                    : 81.5 KiB (0%)
  • Title                          : 繁体中文ASS
  • Language                       : Chinese
  • Default                        : No
  • Forced                         : No
  • Text #3
  • ID                             : 7
  • Format                         : UTF-8
  • Codec ID                       : S_TEXT/UTF8
  • Codec ID/Info                  : UTF-8 Plain Text
  • Duration                       : 1 h 29 min
  • Bit rate                       : 42 b/s
  • Count of elements              : 1147
  • Stream size                    : 27.7 KiB (0%)
  • Title                          : 简体中文SRT
  • Language                       : Chinese
  • Default                        : No
  • Forced                         : No
  • Text #4
  • ID                             : 8
  • Format                         : UTF-8
  • Codec ID                       : S_TEXT/UTF8
  • Codec ID/Info                  : UTF-8 Plain Text
  • Duration                       : 1 h 29 min
  • Bit rate                       : 42 b/s
  • Count of elements              : 1147
  • Stream size                    : 27.7 KiB (0%)
  • Title                          : 繁体中文SRT
  • Language                       : Chinese
  • Default                        : No
  • Forced                         : No
  • Menu
  • 00:00:00.000                   : en:第 01 章
  • 00:07:33.833                   : en:第 02 章
  • 00:17:38.041                   : en:第 03 章
  • 00:24:21.625                   : en:第 04 章
  • 00:29:10.750                   : en:第 05 章
  • 00:38:20.625                   : en:第 06 章
  • 00:45:44.500                   : en:第 07 章
  • 00:54:01.375                   : en:第 08 章
  • 01:01:35.666                   : en:第 09 章
  • 01:09:56.250                   : en:第 10 章
  • 01:18:13.166                   : en:第 11 章
  • 01:24:42.541                   : en:第 12 章






百度网盘:https://pan.baidu.com/share/init?surl=BoopJZKnP632npZFEN1jHA


提取码:
游客,如果您要查看本帖隐藏内容请回复

您需要登录后才可以回帖 登录 | 立即注册

本版积分规则

快速回复 返回顶部 返回列表